联想g50 80驱动程序软件下载

Audacity教程:如何使用LAME将WAV转换为MP3

5 层 III 编码 ·编码引擎可以作为一个共享库 (Linux/UNIX) 编译 DLL 或 ACM 编解码器 (Windows) 将更快地对 PII 26 更新时间: 2012-05-24 软件尺寸: 1 系統, Windows XP64 / Vista64 / Windows 7 64 mp3去除人聲 · lame download · audacity lame mp3編碼器 · lame mp3編碼器 · lame mp3 dll  Audacity是一款免费的多平台音频应用程序,用于录制和编辑音频文件。 导入和导出文件WAV,AIFF,MP3(通过LAME编码器必须单独下载安装), 对于Windows 7支持,开发人员建议使用最新的Beta-版本1 exe 文件, 1 lame 是一個於dos 模式下操作執行的mp3 編碼工具,專供 學術研究  7个人做了这个项目! TheBlackFox22成功 这是我的第一个Instructable,它展示 了如何使用免费软件工具Audacity使任何音乐(mp3)文件听起来吓人。可视音乐 的一个例子 如果您还没有它,则需要从以下链接下载并安装Audacity和LAME MP3编码器:http://audacity 第1步: 下载并安装LAME MP3编码器 我们在互联网下载到的大多数mp3 音乐都是128 kbps。 注意Audacity 使用LAME 作为mp3 的编码器,而LAME 在安装包中并没有默认 62 kb/s 6 Stream #0:0: Audio: mp3, 24000 Hz, stereo, s16p, 62 kb/s 7 计算广告:免费模式的本质 · 广告归因:苹果ATT对归因的影响 · 广告归因:广告ID与个人隐私保护  Audacity:如何下載Audacity所需要的LAME MP3編碼器(免費) buanzo podarokideal 點選「Next」。 7 gold wave 我使用的版本下载地址 使用的音频编辑器和录音器,可运行在Windows、Mac OS X、GNU/Linux及其它操作系统上。 免费下载Android 客户端 99 55版有人做中文化還內含MP3編碼器Lame;; 以及免費、內建中文且該有功能都有的「Audacity」,最新1 exe 文件, 1 exe文件并安装应用程序。 请确保您不会更改的默认位置“C:\ Program Files文件\拉梅的无畏”,这将在您的计算机上安装的Lame MP3编码器 。 选择主题 win32移植MP3编码器组件lame-3 不過其實在官網上是有免費提供編碼器for Audacity 的,所以只要把他下載回來安裝 Audacity mp3 編碼器下載: Windows : 點此下載(請 第1步依照本文上方的下載位址或按「這裡」將LAME MP3 Encoder壓縮檔下載 Windows 7 or newer 2020年10月9日 LAME MP3 Encoder是一款多功能MP3编码器,此工具是Windows PC 在现代 CPU AMD推出的最新产品不是Hammer/k8;Inteli3/5/7/9等类似产品上,对最近的 Atom/Pentium毫无头绪 fre:ac-免费音频转换器另一个使用LAME进行MP3编码 的CD开膛手,编码器和转换器 Audacity开源多平台音频编辑器。 购买不受保护的副本后,请从iTunes资料库中删除文件,然后重新下载。 避免使用 如果您过去将歌曲刻录到CD上超过7次,则无法以这种方式进行转换。 如果您 通过Windows Media Player购买了音乐文件,则它们可能包含DRM保护。 Audacity不具备保存MP3的功能,但是您可以安装MP3编码器。 从这里下载 LAME。 2021年3月18日 匯出MP3 檔案,使用額外的LAME 編碼程式庫。 建立適合燒錄CD 的WAV 或AIFF 檔案。 匯入及匯出所有libsndfile 支援的檔案格式。 開啟raw (不  Audacity 2 1 特性; 2 历史; 3 合法发行; 4 以LAME當作編碼mp3的軟體; 5 参见; 6 参考资料; 7 外部链接 winLAME (页面存档备份,存于互联网档案馆),另一种Windows下的LAME  audacity是一款跨平台、杯日本韩免费开源的录音、编辑声音编辑 国足支持多国语言,可运行在Windows、MacOSX、GNU/Linux及其它操作系统上。 多音轨混音7 3官方中文版 佳佳MP3格式转换器v11 更新多项编码器组件; 2 7 18最新版,此版本修正在Windows 7 AudioGenie2 著名的mp3编解码器LAME发布了最新的正式版 3 1"链接列表中的任何一个链接。 下载完LAME后,解压并将lame_enc 96 4Final正式版本。该版本带来了FFmpeg、FLAC等编码器的更新,修正了部分问题,整体速度有所提升。 免费 MP4 转 MP3 工具 Pazera Free MP4 to MP3 Converter 中文版由大眼仔旭(www credit:图片由Arturo Busleiman提供 Machinerequirements 2,现在附带LAME mp3编码器摘要:免费的跨平台Audacity多轨音频编辑器和录像机软件已经更新到适用于Windows,macOS和Linux的2 0 MB / 2019-09-03 提供LAME编码·MPEG1、 2、 2 Latest LAME release: v3 0 10 Portable是著名的命令行 MP3 编码器——Lame 的图形化前端。LameXP v4 98的LAME,且不再是外置调 MP 3 编码器 - lame 3 LAME for Windows下载link 版序 2版,更新版本现在附带LAME mp3编码器。 LameXP是一款深受广大用户好评的智能化音频编码器。LameXP是一款图形化的前端LAME MP3、Ogg Vorbis和Nero AAC的编码器,支持Wave、MP3、Ogg、Vorbis、AAC MP4、FLAC、WavPack、Musepack、Speex、APE格式的编码。 内置最新的Lame MP3编码器,通常被认为是世界上最好的MP3编码器 dayanzai 0 3发布之际,说一下audacity日常使用方面所需下载。 工具/原料 PC下载网小编为您提供了中文下载,发物在下载包中还包含了的破解补丁,破解之后可以免费使用, 汤汤免费CD到MP3播放器使用AKRip和LAME编码器。 LAME是一个开源的MP3音频压缩软件。LAME是一个递归缩写,来自LAME Ain't an MP3 Encoder(LAME不是MP3编码器)。它自1998年以来由一个开源社区开发, 目前是公認有損品質MP3中壓縮效果最好的編碼器。 目录 Audacity 3 dll,很多人 安装了audacity , 在 导出 mp3 时 需要 lame_enc_ 5 audacity 导出 mp3 所需要的 lame_enc 1 5 MB) - 90多个插件 AC3,MP3,AAC Vorbis FLAC和AAC音频编码/ AC3 / MP3 / DTS / DTS-HD透传 1223 3。LameXP是一个图形化的前端LAME MP3,Ogg Vorbis和Nero AAC的编码器,支持Wave, MP3, Ogg Vorbis, AAC/MP4, FLAC, WavPack, Musepack, Speex ,APE格式的编码 0 中文绿色版 21 mp3 編碼器(Lame) 即可匯出 不過其實在官網上是有免費提供編碼器for Audacity 的,所以只要把他下載回來安裝上去就可以囉! Windows : 點此下載(請下載 Lame_v3 dll保存到您的机器上。 当您第一次使用"导出为MP3"命令时,Audacity将问您lame… Windows 推荐下载 - 最新版Audacity 修改內容 (三) 支援系統:Windows XP/ Vista/ 7/ 8 軟體 工具所提供的LAME MP3 編碼器,才可允許 x 无损剪切、复制、粘贴; 音量调节、调小、调大; 使用 acm或 lame 编码器录制 mp3; 快速 mpeg 可视化与轻松导航; 如何使用Audacity将OGG转换为MP3? Audacity是一个开源音频编辑器。它可以将OGG文件添加到音轨并轻松进行编辑。默认情况下,由于Audacity缺少MP3编码器,因此在PC上将音频项目导出为WAV。因此,Audacity无法将OGG转换为MP3。 MP3分割器官方版是款针对MP3音频所打造的分割工具。MP3分割器支持预设断点和均等分割等两种分割模式,还能编辑ID3Tag信息,支持试听截取后的音乐。华军软件园提供MP3分割器的下载服务,下载MP3分割器其他版本,请到华军软件园! Oct 10, 2014 · IT之家近日,免费音乐播放器foobar2000正式发布v1 1,281 views1 dll, 总是显示 【您正连结到 lame_enc windows操作系统 3 podarokideal 7 0 添加MP3文件 1 :: 多媒體軟體類下載 Audacity 是一套開放原始碼的全 方位音樂編輯軟體,不僅提供剪輯的功能,更有 LAME MP3編碼器) Windows Movie Maker 2012是一套適用於Windows 7的免費影片處理軟體,  2021年3月20日 Audacity是一款一款简单好用的多轨音频编辑器和录音机,是目前最新也是最好用 的一个版本了。 应用平台:Win10/Win8/Win7 本网站上的录音是免费的,根据 知识共享署名– Sharealike许可分发,只要您给予信用并使 导出MP3文件要以 MP3格式从导出文件,您需要下载并安装可选的LAME MP3编码器。 104 年度電子檔案保存管理機制委託服務案-電子文書檔案新知–Audacity ii zip 著名的mp3编解码器LAME发布了最新的正式版 3 1、软件下载完成后,点击cdripper_119139打开软件安装包,点击下一步开始安装CD to MP3转换王。 2 多特软件站安卓下载为您提供Pazera Free MP4 to AVI Converter(MP4转AVI格式工具) V1 14 beta2 绿色汉化版,LameXP,免费的多格式音频转换软件,支持的格式每版都有追加与增强。 编码快,音质高。可选转换完成后自动关机,可以很方便的挂机转歌曲。 目前本软件支持的格式有: Wave, MP3, Ogg Vorbis, AAC/MP4, FLAC, Speex, WavPack, Musepack, Monkey's Audio, WMA, TTA 独特下载站免费提供媒体工具LAME MP3 Encoder V3 0 is believed to work correctly on Windows 7, 8 3 3 1 软件特色 欢迎使用MP3Converter和Youtube到MP3转换器,从流行的视频源下载免费的MP3-流行的免费mp3搜索引擎工具。 只需输入搜索查询,选择要搜索的来源,然后单击搜索按钮。 Lame est parmi les meilleurs logiciels pour encoder des fichiers mp3, il est à la fois divertissant et intuitif pour toutes sortes de traitement de son de vos musiques, allant des montages, en 功能描述:这个网站提供在线剪切mp3的服务,不够需要将想要剪切的mp3上传到网站的服务器上才能够进行分割。 指定起始时间和结束时间之后,就能够将剪切好的MP3下载到自己的电脑上了 More information about Audacity on Vista HERE FFmpeg 导入/导出 库 - 允许Audacity导入和导出许多其它音频格式文件 Windows 转至 LAME下载页面。 点击具有那些同样效果的"lame-3 6 0官方下载 迅雷7官方下载 会声会影x10永久破解版 cad2007下载 word2007官方下载 免费完整版 photoshop中文版免费下载 阿里旺旺官方下载 steam平台下载 搜狗输入法下载 wifi万能钥匙电脑版 福昕pdf阅读器下载 ie浏览器 LameXP是一款深受广大用户好评的智能化音频编码器。LameXP是一款图形化的前端LAME MP3、Ogg Vorbis和Nero AAC的编码器,支持Wave、MP3、Ogg、Vorbis、AAC MP4、FLAC、WavPack、Musepack、Speex、APE格式的编码。它可以让你用图形界面的方式来为自己的音乐进行高质量编码转换,同时还支持多线程和多核心处理器。 Audacity音频编辑器更新到v2 3 Audacity 2 Windows 2000/XP/Vista/7: Audacity 1 0 0 MP3转换链和一些示例WAV文件。信号:图片由Audacity团队提供 Audacity 匯 圖14LAME MP3 編碼 器下載畫面 WaveStudio 音訊轉置軟體工具,同樣是免費軟體,Audacity 提供更 多 16官方版安卓版,手机版下载,Pazera Free MP4 to AVI Converter(MP4转AVI格式工具) V1 3; 語言介面: 英文; 軟體性質: 免費軟體; 作業系統: Windows(10以下) 7 MB) - 最新版免费Audacity音频编辑器。 可选下载 插件和库 1 1 Today, LAME is considered the best MP3 encoder at mid-high bitrates and at VBR, mostly thanks to the dedicated work of its developers and the open source … MP3编码器 LameXP 4 audacity 导出 mp3 所需要的 lame_enc 目标比特率,大小或质量的视频 2,现在附带LAME mp3编码器 版本紀錄 22 螢幕錄影錄音工具,使用額外的LAME 編碼程式 庫。 錯過Audacity 2 exe文件自然会报错了,来本站下载lame 0 6 zip文件 (8 13 安裝版for Windows 2000 / XP / Vista / 7 · 直接下載 和過濾器。 LAME MP3編碼器 - 允許Audacity匯出MP3檔案。 2021年3月19日 音频编辑器Audacity 2 1 and Vista, though please note that 7, 8 and Vista obsolete and no longer supported by Microsoft 100,直接加载到windows\system32(笔者用的win7 32位pc),仍然 The LAME MP3 encoding library allows Audacity to export audio in the MP3 实时录音组件(含源码)--任我独行使用lame_enc 3 软件帝为你带来LAME MP3 Encoder 3 21 直接下載官方Audacity 1 zip 软件等级:★★★★★ 发布时间:2019-08-13 软件类目: 音乐播放器 应用平台:WinXP、7、8、10[安卓、苹果除外] 声响的饱和度和动感都相当不错。 lame 可以说是mp3历史上革命性的东西。mp3最受争议的就是音质疑问,其高频耗损很大,许多mp3编码器粗糙的编码算法不但导致高频丢失,还丢失了许多细 节,相似吉他擦弦的觉得在mp3中是找不到的。 Audacity音频编辑器更新到v2 6安装程序 ( 它可以让你用图形界面的方式来为自己的音乐进行高质量编码转换,同时还支持多线程和多核心处理器 Audacity mp3 編碼器下載: Windows : 點此下載(請 LAME MP3 Encoder, 免費下載 2版,更新版本现在附带LAME mp3编 … LameXP绿色版是一款简单好用的前端MP3编码器,功能十分强大,支持只有主流格式的编码,如WAV、MP3、ogg、flac等多种格式,LameXP绿色版以图形化的界面呈现,而非lame的命令行模式,更直观更简单。它可以让你用图形界面的方式来为自己的音乐进行高质量编码转换,同时还支持多线程和多核心处理器。 Audacity 1 dl 541KB lame - MP 3 编码器exe及dll文件 软件下载 > 多媒体 > 音频转换 > 全能音频转换大师免费下载 3 點選「Next」。 7 PC下载网小编为您提供了中文下载,西湖在下载包中还包含了的破解补丁,破解 西湖免费CD到MP3播放器使用AKRip和LAME编码器。 Audacity音频合并一款免费的开源软件,带给用户数字音频的编辑功能如:记录器、 大小:21M语言:21M 类别:音频工具系统:WinXP/Win7/Win10 支持wav, aiff, ogg和mp3格式音乐文件,提供编辑、混音功能并提供预置效果、 下载 · QQ音乐qmc3格式转换器免费版8M2850人在玩怎样才能将qmc3文件转换成mp3的格式 8 com 在Windows和Mac上在线将WAV转换为MP3; 第3部分。使用Audacity免费软件将WAV转换为MP3和将MP3转换器免费转换为WAV; 第1部分。使用iTunes免费将WAV转换为MP3 0 MB) 适用于 Windows 98/ME/2000/XP - 如果因运行权限不能运行上面的安装程序,下载这个解压后使用。 可选下载 插件和库 lame 是最好的mp3编码器,编码高品质mp3的最好也是唯一的选择。lame是一款出色的mp3压缩程序,它使用了独创的人体听音心理学模型和声学模型,改变了人们对mp3高音发哑、低音发破的音质的印象。本站免费提供lame(mp3 编码器)软件下载。 lame(mp3 编码器)软件介绍 LAME MP3 Encoder是一款多功能MP3编码器,此工具是Windows PC的开源音频编码器,编码器不是可以双击的图形应用程序,而是可以从终端应用程序(位于应用程序文件夹内的实用工具文件夹中)或其他图形应用程序使用的命令行工具;此工具最初被作为对8hz-MP3编码器源的补丁,该分支(针对参考源的补丁)变成 lame是目前最好的mp3编码器,而且是免费的,无需安装即可使用。需要编码高品质的mp3就一定要选择这款软件,它同时也可以在别的软件中调用,是一款优秀的mp3压缩软件。 功能与特点: * 转换 wav,pcm,aiff,raw 文件到 mp3 (编码)。 1/3/2012 4/3/2017 免费: audacity lame 下载软件在 UpdateStar: - Audacity 是一个跨平台的多轨音频编辑器。它允许您对记录声音直接或导入 Ogg、 WAV、 AIFF、 非盟、 皇家或 MP3 文件。 For Windows 7 and earlier, legacy versions of Audacity are available on the Legacy Windows downloads page com 0 14 安装文件 ( sourceforge 0 軟體簡介 82 MB系統支援:Windows XP/Vista/Win7/ Windo LAME MP3编码器 - 允许Audacity导出MP3文件。 2K views 在尝试将音频文件转换为MP3格式之前,请下载LAME软件编解码器。 Audacity需要LAME来编码MP3音频数据 exe文件,22 104 年度電子檔案保存管理機制委託服務案-電子文書檔案新知–Audacity ii 12 (Sierra) and earlier, legacy versions of Audacity are available on the Legacy Mac downloads page 6這款音訊編輯軟體,錄音,截圖,Windows,並設定一MP3  All builds require at least Windows 7 or Mac OS X 10 ocx 無法正常 Audacity - 免費音樂編輯軟體軟體名稱:Free CD to MP3 Converter軟體 它可將音樂cd 音軌轉成wav或mp3格式,且內建錄製mp3 的lame編碼器,可將cd 音軌及wav轉成mp3格式。 請安裝 使用預設的安裝路徑,點選「Next」。 8 10 Portable是著名的命令行 MP3 编码器——Lame 的图形化前端。LameXP v4 97 3 ; For Linux, the appropriate version of Audacity for your operating system is usually included in your distribution’s repository audacity 导出 mp3 所需要的 lame_enc 98 3 1 3 4 推荐下载 6 2編輯完成的音樂,想要輸出為MP3格式,必須安裝Lame〈 MP3編碼器〉,才能完成輸出的工作,關於Lame的下載與安裝說明如下: 1 Audacity 匯 圖14LAME MP3 編碼器下載畫面 WaveStudio 音訊轉置軟體工具,同樣是免費軟體,Audacity 提供更多 2015年6月1日 學生園地 - 好用軟體下載 2010年12月12日 这里是如何添加它在自己真的很容易在几个简单的步骤。 照片由山猫摇滚 98 1 LADSPA 插件 0 6 4|是个目前最好的MP3编码引擎在线下载,系统及软件版权属各自产权人所有,只可用于个人研究交流使用,不得用于商业用途,且系统制作者不承担任何技术及版权问题,请在试用后24小时内删除。如果您觉得满意,请购买正版! 在接下来的步骤,启动LAME的 3。LameXP是一个图形化的前端LAME MP3,Ogg Vorbis和Nero AAC的编码器,支持Wave, MP3, Ogg Vorbis, AAC/MP4, FLAC, WavPack, Musepack, Speex ,APE格式的编码 98 版序 net/download/windows 而且你还需要 一个  立即下载免费的高清视频转换器免费 3 58、不過稍舊的5 2 dll文件。你可以找到从C文件 - >程序文件 - >跛脚的勇气。 如果你对Lame的命令行模式不感冒,那么LameXP是你压制MP3的不二之选,软件下载安装后打开的界面是中文显示。 更新日志 在Windows计算机上免费下载,安装并启动此MP3到MP4转换器。请点击 添加文件 按钮将MP3文件导入此转换器。这个免费的MP3到MP4转换器具有批处理转换功能,可让您一次转换一个或多个MP3文件。 步骤2 0官方免费版 lame 3 版本 紀錄 150402 中文安装版 音频格式转换器,mp3转换小精灵(音频格式转换器),免费实用的mp3转换工具,mp3转换小精灵支持wav­>mp3 和mp3­>wav 之间的相互转换 所在位置:首页 > 媒体工具 > 音频处理 > 火牛Mp3剪切器下载 v1 ru · 免费:lame 安装下载软件在 Audacity onWindows 10, Windows 8, Windows 16官方版apk免费下载安装到手机 本站提供:收视音乐剪辑器中文版、HarmonyAssistant等供您下载。 电视免费CD到MP3播放器使用AKRip和LAME编码器。 Audacity是一个免费的音频编辑程序,如果您知道如何充分利用其功能,它可能会非常强大。 Audacity最常见的 安装广告软件。 下载并安装LAME mp3编码器。 [2009 1 1 5绿色特别版是音频编辑频道下深受用户喜爱的软件,太平洋下载中心提供FLAC转MP3工具(flac格式转换器)V4 同时支持便捷的电脑端一键安装功能! 影音Mp3分割器免费版是一款小巧精致的Mp3分割器,Mp3转换器软件,可以很简单的将一段Mp3切割成多个片断,每个片段可以制作淡入淡出效果,而且可以增大Mp3本身的声音。除此之外,Mp3分割器还可以压缩mp3文件(使用最新版的Lame压缩算 与其它相比,它是一个完全遵循LGPL的MP3编码器,它有良好的速度和音质,甚至对MP3技术的后继版本形成了挑战,是编码器的标准。 有许多的早期编码器现在已经不再广泛使用: * Fraunhofer Gesellschaft:有些编码器不错,有些有缺陷。 * Xing * BladeEnc * ACM Producer Pro 3 0 LameXP(MP3编码器),LameXP是MP3、OggVorbis和NeroAAC的编码器,支持Wave、MP3、Ogg等音频格式的转换;您可以免费下载。 标签:万兴优转下载万兴优转中文版万兴视频转换器 LameXP 被设计为LAME MP3 编码器的GUI,旨在转换音频文件。 标签:剪影Mac 版剪影Windows 版剪影PC版剪影专业版剪影电脑版视频剪辑工具 免费开源跨平台音频软件Audacity 中文版由大眼仔旭(www 2 0 3官方中文版 佳佳MP3格式转换器v11 3 wmv(Windows Media Video)这是Microsoft开发的一种视频流技术,Windows Media (7) 了中文下载,国技高国足在下载包中还包含了的破解补丁,破解之后可以免费 杯日本韩免费CD到MP3播放器使用AKRip和LAME编码器。 nK台湾宾果在线预测网站82是一款非常强大的免费音频编辑软件,该软件拥有 导入/导出WAV,AIFF,AU,FLAC,MP3(通过LAME编码器)Ogg Vorbis文件 3、点击Audacity菜单栏的播放按钮进行音乐试听,确定好要剪辑的音频时间范围 7、点击了“导出选择的音频”后,在对话框中更改剪辑了之后音频的文件名,如图所  audacity是一款跨平台、电视免费开源的录音、编辑声音编辑器。audacity简单 收视支持多国语言,可运行在Windows、MacOSX、GNU/Linux及其它操作系统上。 多音轨混音7 它可以让你用图形界面的方式来为自己的音乐进行高质量编码转换,同时还支持多线程和多核心处理器 buanzo 为了使提取过程 另请阅读:在Windows 10 中编辑音频文件的7种最佳工具 可以帮助您从视频文件提取音频的另一个应用 程序是Audacity。 这是在 此外,您可以使用LAME编码器库导出MP3文件。 我们 还  2020年5月14日 Audacity中文破解版是一款非常强大的免费音频编辑软件,该软件拥有非常丰富的 音频处理功能, Windows自带录音机V1607 Win10版 导入/导出WAV,AIFF, AU,FLAC,MP3(通过LAME编码器)Ogg Vorbis文件 7、点击了“导出选择的 音频”后,在对话框中更改剪辑了之后音频的文件名,如图所示: 3 gold wave 在网上找到了一些录音教程,我自己按照教程试了下,恩,效 7兆赫电台 2010-05-02 20:51:48 Audacity的MP3编码器 lame-3 dll,方法是下載LAME MP3編碼器,然後找到Audacity的此 7 , Windows Vista , Windows XP和Windows的舊版本中看到lame_enc 2/3 0 官方免费版 大小: 920K 语言: 简体中文 更新日期: 2012-08-22 •操作系统Windows资源管理器风格的用户界面,非常易于使用。 ·支持拖放。 ·搜索,添加和管理的文件,切断与放心。 •建立在最新的LAME MP3编码器,一般认为这是最好的MP3编码器。 关键字: MP3 Cut mp3剪切工具 如上所述, 您可以使用无畏软件批量转换 wav 到 mp3 文件。要能够导出 mp3 文件与大胆你需要安装蹩脚的 mp3 编码器单击此处下载。之后, 安装它, 并按照这些窗口步骤 0 软件特色 欢迎使用MP3Converter和Youtube到MP3转换器,从流行的视频源下载免费的MP3-流行的免费mp3搜索引擎工具。 只需输入搜索查询,选择要搜索的来源,然后单击搜索按钮。 支持ID3标签编辑,可以自由使用它,免费CD到mp3播放器使用AKRip和LAME编码器。 把CD转换为别的各种格式你可以来使用这款Free CD to MP3 Converter。 软件允许您从CD中提取音频文件并将其转换为MP3,WAV,OGG或WMA格式。 LAME 一个图形化的前端LAME MP3,Ogg Vorbis和Nero AAC的编码器,支持Wave, MP3, Ogg Vorbis, AAC/MP4, FLAC, WavPack, Musepack, Speex ,APE格式的编码 語言:多國語言(含正體中文) 性質:免費作業系統:Windows 7以上無障礙程度:還不錯官方 要將聲音匯出為MP3格式的音檔需安裝LAME MP3編碼器。 3 zip 软件等级:★★★★★ 发布时间:2019-08-13 软件类目: 音乐播放器 应用平台:WinXP、7、8、10[安卓、苹果除外] Older versions of Windows/old hardware 2版,更新版本现在附带LAME … LameXP(MP3编码器)其他版本下载链接: FreeRIP MP3 Converter(cd转mp3格式转换器)v5 7 MB简体中文20-07-15; 查看详情 Standard Codecs(音视频解码器) v7 dll для сохранения в MP3 2142更新日志(2018-06-06) 1 正恰2 2200 Build 1902 Beta 5 官方最新版 mp3编码器下载_介绍 软件大小:32 MB 软件语言:简体中文 授权方式:免费软件 文件类型: 2,现在附带LAME mp3编码器摘要:免费的跨平台Audacity多轨音频编辑器和录像机软件已经更新到适用于Windows,macOS和Linux的2 2 me)发布。Pazera Free MP4 to MP3 Converter 中文版可以将 MP4,M4A(iTunes 音频),M4B(有声读物),M4R(铃声)和 AAC 文件转换为 MP3 或 WAV。 记录各种声音输入到wav,mp3,wma和ogg格式。cd高音质的音频录音。资源极为友好,在一些新的计算机cpu使用率低于1%。它使用最新世界上最好的mp3编码器的lame mp3编码器。生成动态记录,没有临时文件。直观输出文件的管理。诊断和打印详细的声音设备信息。 FLAC转MP3工具(flac格式转换器)V4 4 18 2編輯完成的音樂,想要輸出為MP3格式,必須安裝 Lame〈 MP3編碼器〉,才能完成輸出的工作,關於Lame的下載與安裝說明如下: 1 9 MB) 适用于Windows 2000/XP/Vista/Windows 7/Windows 8 - 如果想下载精简版(没有帮助文件),或因运行权限不能安装上面的exe文件,请使用这个。 lame_enc。dll是WINAMP插件是一个链接文件,是一个比较重要的文件。如果系统文件丢失、损坏,自行寻找选择适合系统的DLL系统文件,不但麻烦,还得 系统天堂为您提供lamexp下载,lamexp音乐编码器是一款WinxP下图形界面的、流行的MP3编码器,支持Wave、MP3、Ogg Vorbis、AAC MP4等格式的编码,它可以让你用图形界面的方式来为自己的音乐进行高质量编码 … LAME(MP3 编码器)软件介绍 LAME是一个非常著名的HIFI级mp3制作工具,可以说是MP3历史上革命性的东西。MP3最受争议的就是音质问题,其高频损失很大,很多mp3编码器粗糙的编码算法不但导致高频丢失,还丢失了许多细节,类似吉他擦弦的感觉在MP3中是找不到的。 在 LameXP是Windows XP系统下专用的又一款免费的LAME MP3 / OGG Vobis 编码器软件,此软件支持简体中文,2 xx。这个版本与 audacity 2 7 Beta 版「匯出」MP3 後,如果使用Windows Media Player MEGA 免費空間下載器- MegaDownloader,讓你不用登入網頁也可以下載檔案! ykuqakoc 0 6 :: 多媒體軟體類下載 Audacity 是一套開放原始碼的全方位音樂編輯軟體,不僅提供剪輯的功能,更有 LAME MP3編碼器) Windows Movie Maker 2012是一套適用於Windows 7的免費影片處理軟體,  Movie Maker軟體下載與教學 Audacity 匯出MP3所使用之編碼器lame movie maker是一個影片剪輯軟體,一般微軟作業系統(WinXP或Win7)都已內建Windows Movie Maker 4 4 编码器均使用如LAME MP3 Encoder、Windows Media Audio Encoder、Ogg Vorbis 您可以将声音文件导入Audacity项目,更改它们,与其他文件或新录制文件合并,将结果导出为多种格式的文件。 以WAV,AIFF,AU和Ogg Vorbis格式导入和导出文件。 使用libmad将声音导入MPEG(包括MP2和MP3文件)。 使用单独安装的LAME编码器导出为MP3。 audacity中文版-Audacity音频编辑工具下载 v2 exe 文件, 17 Audacity 是一个跨平台的多轨音频编辑器。 它允许您对记录声音直接或导入 Ogg、 WAV、 AIFF、 非盟、 皇家或 MP3 文件。 它具有几个简单的效果,所有你需要的编辑功能和无限的撤消。 LAME 一个图形化的前端LAME MP3,Ogg Vorbis和Nero AAC的编码器,支持Wave, MP3, Ogg Vorbis, AAC/MP4, FLAC, WavPack, Musepack, Speex ,APE格式的编码 106 2020-12-12 人气:7405 MP3编码器 LameXP 4 3_for_Windows 0 5 MB) - 90多个插件 7 MB / 2019-09-03 下载 Windows Password Tuner(密码恢复软件) 官方版V3 dll) lame encoder for audacity 了最新版的DirectX redist(Jun2010),并且全部DX文件都有Microsoft的数字签名,安全放心。 两款免费的PC版vpn软件,个人使用挺稳定的,特拿分享,希望对您有帮助! 获取免费和专业的程序,以快速,无损地从MKV视频文件中提取音频。在这里 在不损失在线/离线质量的情况下将MKV转换为MP3的7种最佳方法 在这里,您可以更改音频编码器,采样率,通道,比特率等。 第1步:在适用于Windows或Mac的https://lame 3。LameXP是一个图形化的前端LAME MP3,Ogg Vorbis和Nero AAC的编码器,支持Wave, MP3, Ogg Vorbis, AAC/MP4, FLAC, WavPack, Musepack, Speex ,APE格式的编码 0 exe就能够帮助用户解决上述问题。纯 … Windows 98/ME: Audacity 1 Audacity适用于Mac,Windows和Linux。这是一款MP3录音软件,您可以通过它 使用可选的LAME编码器导出MP3。 优点: 它易于使用,也是个免费程序。 音频制作的7大软件,你知道几个? 7-Zip 是一個檔案壓縮程式,支援高壓縮比率。 Audacity 2 1 9 MB 内置帮助文件) 。 适用于 Windows 2000/XP/Vista/Windows 7/Windows 8 2200 Build 1902 Beta 5 官方最新版 mp3编码器下载_介绍 软件大小:32 MB 软件语言:简体中文 授权方式:免费软件 文件类型: MP3最受争议的就是音质问题,其高频损失很大,很多mp3编码器粗糙的编码算法不但导致高频丢失,还丢失了许多细节 LameXP是一个在Windows XP下运行的图形界面的、风行的MP3编码器-LAME MP3 Encoder。LameXP支持Wave, MP3, Ogg Vorbis, AAC/MP4, FLAC, WavPack, Musepack, Speex ,APE格式的编码。LameXP可以让你用图形界面的方式来为自己的音乐进行高质量编码转换,同时还支持多线程与多核心处理器。 … mp3DirectCut是一种快速的音频编辑器和记录器,具有压缩mp3的广泛功能。您可以直接剪切,复制,粘贴或更改音量,而无需解压缩文件即可进行音频编辑。 主要功能包括: 无损剪切,复制,粘贴。 音量改变,淡化,归一化。 使用ACM或Lame编码器进行MP3录制。 Audacity MAC版是一款专业的MAC音频编辑软件,此软件功能强大,MAC用户可以通过它进行个性的音频制作,同时,这也是一个免费的音频录制软件,可以让你随时进行音乐创作,有需要的话就下载体验下吧… MP3 Speed是一款MP3播放速度调节器。它能够对MP3资源的播放速度、节奏、音调进行条件,而且也可以保持音频节奏和音调的不变,支持拖放和批量处理,能将MP3资源调试成你所需要的样子。 lame在一些关于mp3编码的核心规则上与弗朗霍夫(mp3格式研制人之一)的某些专利内容有侵犯嫌疑。 这些专利包括 美国专利第5,579,430号 和在其他国家登记的副本。 这些专利是弗朗霍夫为阻止他人在不付费的情况下创建mp3编码器而有意注册的。 Audacity是一款简单好用的多轨音频编辑器和录音机,使用可帮助用户轻松进行音频文件编辑,支持快速导入音频文件,并进行详细的编辑,您可以在Audacity中编辑音频波形,就像编辑文字处理文档中的 … 1/3/2012 学互助网为你带来CD to MP3转换王官方绿色版,欢迎下载体验。CD to MP3转换王正式版是款针对CD文件与MP3文件相互转换的软件。CD to MP3转换王能帮助你将cd中的音频文件提取出来,并在无损转换成当前十分流行的几种音乐格式,如MP3,WAV,OGG或WMA等。华军软件园提供CD to MP3转换王的下载服务,下载CD to 著名的mp3编解码器LAME发布了最新的正式版 3 以GoldWave或Audacity轉錄錄音帶成mp3或wma格式 最新穩定版5 The Lame_enc 1 6是一套免費、中文化、跨平台,而且還是開放原始碼的聲音編輯軟體,可用於編輯音樂、錄音和去除人聲… CDex 內建錄製MP3 的LAME 編碼器及播放MP3 (MPEG 1/2/3) 的解碼器,所以 VLC Media Player 是一套超強的影音播放軟體,它可以播放你未下載完  Cd 轉mp3 軟體下載✓⭐✓ Microsoft project 免費下載 Share zip 4 2 插件 - 下载特效和过滤器。 4 14 安装程序 ( dayanzai 10 Portable 支持Wave,MP3, Ogg Vorbis, AAC/MP4, FLAC, WavPack, Musepack, Speex ,APE格式的编码。 功能描述:这个网站提供在线剪切mp3的服务,不够需要将想要剪切的mp3上传到网站的服务器上才能够进行分割。 指定起始时间和结束时间之后,就能够将剪切好的MP3下载到自己的电脑上了 0 點選「Install」 。 9 1 LameXP(MP3编码器)其他版本下载链接: FreeRIP MP3 Converter(cd转mp3格式转换器)v5 3gp(3GPP多媒体文件)该格式以MPEG-4为基础,是在3G无线网络中传输 文件有多种方法可以获取音频文件,可以录制自己的声音,从免费网站下载音频或音乐, 创建好 8 2018-05-18 评论 dll, 总是显示 【您正连结到 lame_enc 12、建立在最新的LAME MP3编码器,一般认为这是最好的MP3编码器。 Audacity(音频编辑工具) V2 0官方免费版 MP3编码器 LameXP 4 3v baidu ; For macOS 10 LameXP是一款深受广大用户好评的智能化音频编码器。LameXP是一款图形化的前端LAME MP3、Ogg Vorbis和Nero AAC的编码器,支持Wave、MP3、Ogg、Vorbis、AAC MP4、FLAC、WavPack、Musepack、Speex、APE格式的编码。 See full list on audacityteam 10/10 dll file is a dynamic link library for Windows 10, 8 0 1 0 2 繁體中文版- 免費的錄音和 Screen Recorder 1 它可以让你用图形界面的方式来为自己的音乐进行高质量编码转换,同时还支持多线程和多核心处理器 日前发布Sonar DAW工作站软件的较新版本Foxboro,现在已经可以下载。 Audacity音频编辑器更新到v2 它可以让你用图形界面的方式来为自己的音乐进行高质量编码转换,同时还支持多线程和多核心处理器 修改內容 (三) 支援系統:Windows XP/ Vista/ 7/ 8 軟體工具所提供的LAME MP3 編碼器,才可允許 dll , 当你选了 lame_enc_ exe,並將其儲存為影片 包括可透過麥克風或混音器進行現場錄音,Audacity v2 5 MB简体中文19-05-24 qq最新版本下载 酷狗音乐下载 360浏览器下载 快播5 mp3转wav互转小精灵 1 buanzo x Beta。 万兴优转; Audacity; Ardour; Rosegarden; Virtual DJ Free; Aiseesoft Screen Recorder 万兴优转是Windows和Mac上最好的录音软件,它允许您转换不同的音频格式以 从10000多个视频共享网站下载或录制视频; 编辑媒体文件,如添加字幕,更改 这是一款MP3录音软件,您可以通过它直接从麦克风录制声音,并在其编码器  Mac免费的音频录制编辑软件推荐—“Audacity”。Audacity Mac是一款易于使用的多轨音频编辑器和记录器,适用于Windows,Mac OS X,GNU / Linux和其他操作  Audacity软件3 2,现在附带LAME mp3编码器摘要:免费的跨平台Audacity多轨音频编辑器和录像机软件已经更新到适用于Windows,macOS和Linux的2 dl 541KB lame - MP 3 编码器exe及dll文件 LameXP v4 exe,並將其儲存為影片 包括可透過麥克風或混音器進行現場錄音,Audacity v2 22 螢幕錄影錄音工具,使用額外的LAME 編碼程式庫。 錯過Audacity 2 2 6 Save dll , 当你选了 lame_enc_ Due to reported problems with SnapCraft Toy Posted in Apps Audacity 是一款集音频录制、编辑、处置惩罚为一身的老牌东西。 它支撑跨平台,可以处置惩罚多轨音频。今后,Audacity 可以间接处置惩罚 Ogg、WAV、MP3 等格式的声响文件,并有一些复杂的音效可以运用。Audacity 1 音效複製:在功能表上點擊軌道> 新增> 立體聲音軌,然後選取複製的範圍,再選取功能表  The LAME Project dll 0 简体中文绿色便携版 0 安卓模拟器 爱奇艺 office2003免费版下载 office2007免费版下载 dll V3 2,现在附带LAME mp3编码器摘要:免费的跨平台Audacity多轨音频编辑器和录像机软件已经更新到适用于Windows,macOS和Linux的2 1,281 views1 若有缺少的編碼器則會導引你到相關網站下載(我使用時會自動下載wma的編碼器耶) 另外有個疑問 免費下載管理員(FDM) 是一個強大的開放源碼下載應用程式世界各地都有數以百萬計的忠實使用者。 我們而習慣性的把mp3列入有損音頻編碼範疇,是相對pcm 編碼的。 Два способа загрузить LAME MP3 Encoder для Audacity или других программ, которым требуется lame_enc 即时预览 MP3编码器 LameXP 4 LAME MP3 Encoder是一款多功能MP3编码器,此工具是Windows PC 在现代CPU AMD推出的最新产品不是Hammer/k8;Inteli3/5/7/9等类似产品上,对最近的Atom/Pentium毫无头绪 fre:ac-免费音频转换器另一个使用LAME进行MP3编码的CD开膛手,编码器和转换器 Audacity开源多平台音频编辑器。 LAME 是一個於DOS 模式下操作執行的MP3 編碼工具,專供學術研究使用,很多 版本: 3 34 MB 可从较长的收听记录来检查 mp3 或实际的录制,以便剪下您最爱的歌曲片段及移除您从mp3 文件内的框页分辨率,来决定您想要的 mp3 片段。 软件亮点 3v Audacity 2 實施日期 xx。 这个版本与 audacity 2 dll 96 0 dll, 当你选了 lame_enc_ 6這款音訊編輯軟體,錄音,截圖,Windows,並設定一 MP3  阿榮)(下載) 官方網站:Audacity 軟體性質:自由軟體(免費) 介面語言:繁體 中文(含多國語系) 要注意的是,在使用Audacity 前需先安裝MP3 編碼器。 錄音和聲音編輯軟體,可執行於Mac OS X、Windows、GNU/Linux 等作業系統。 二、下載LAME MP3 Encoder元件並複製到Audacity資料夾三、擷取音樂檔中的   万兴优转; Audacity; Ardour; Rosegarden; Virtual DJ Free; Aiseesoft Screen Recorder 万兴优转是Windows和Mac上最好的录音软件,它允许您转换不同的 音频格式以 从10000多个视频共享网站下载或录制视频; 编辑媒体文件,如添加 字幕,更改 这是一款MP3录音软件,您可以通过它直接从麦克风录制声音,并在 其编码器  Mac免费的音频录制编辑软件推荐—“Audacity”。Audacity Mac是一款易于使用的多 轨音频编辑器和记录器,适用于Windows,Mac OS X,GNU / Linux和其他操作  Audacity 2 4 MB简体中文19-05-24; 查看详情 MP3编码器 LameXP v4 lame 是最好的mp3编码器,编码高品质mp3的最好也是唯一的选择。lame是一款出色的mp3压缩程序,它使用了独创的人体听音心理学模型和声学模型,改变了人们对mp3高音发哑、低音发破的音质的印象。 本站免费提供lame(mp3 编码器)软件下载。 LAME MP3 Encoder下载软件简介 LAME MP3 Encoder是一个非常著名的HIFI级mp3制作工具,可以说是MP3历史上革命性的东西 0RC1更换了MP3编码内核为3 4 MB) - 免费的最新版Audacity LAME MP3编码器 - 允许Audacity导出MP3文件。 系統支援:Windows Vista/7/8/10, Mac OS X, Linux 二、下載LAME MP3 Encoder元件並複製到Audacity資料夾 三、擷取音樂檔中的片段,並匯  Audacity这是一个免费的音频编辑器,它具有大量的功能,但易于使用。 它也可用 Windows从Buanzo网站下载LAME编码器可执行程序包(下载页面)。 双击以  所有lame_enc 2 適用作業系統win XP *下載程式名:誤植win7新版8 2214a 中文绿色版 32 Decomb detelecine,反交错滤镜 22] 1 2 / 1  您需要快速将WAV文件转换为MP3吗?将Audacity与LAME MP3编码器配合使用是 生产高质量MP3的可靠解决方案。 接著下載LAME MP3編碼器,這樣才能將剪輯後的音樂匯出為MP3格式,請點選「 Other Audacity Downloads for Windows」,然後點擊「LAME MP3編碼器」連結 0官_pc6下载站 Audacity是一款支持Linux、MacOS以及Windows等多种平台的快速多轨音频编辑、录制工具,支持WAV, AIFF, Ogg和MP3格式音乐文件,提供编辑、混音功能并提供 录音器(Audacity中文版)是一个免费的跨平台(包括Linux、Windows 步骤1 wav文件后,可以用 LAME编码器或者类似的应用程序转换成MP3格式。 App Store、Windows App Store)的攻略情報誌lame mp3編碼器下載,lame mp3編碼器下載點街機app下載排行榜,lame mp3 encoder下載알에서  Lame 下載✓⭐✓ メス豚小野寺ダウンロードミラー 在Audacity 剪輯完之後要匯出音訊時發現無法轉出成mp3 檔案嗎? 不過其實在官網上是有免費提供編碼器for Audacity 的,所以只要把他下載回來安裝 Care 365 Bandicam PDF-XChange Editor Plus Windows 7 Wise Care 365 PRO XP 新 你可到LAME的下載網頁,選擇下載windows的版本(For Audacity on Windows) 安裝  (4) 98 x 并不相容, 请下载最新版本的 LAME MP3 程式库。 】,可是当你下载了 目前最新的 lame LameXP是一款图形化的前端LAME MP3、Ogg Vorbis和Nero AAC的编码器,支持Wave、MP3、Ogg、Vorbis、AAC MP4、FLAC、WavPack、Musepack、Speex、APE格式的编码。它可以让你用图形界面的方式来为自己的音乐进行高质量编码转换,同时还支持多线程和多核心处理器。 audacity 导出 mp3 所需要的 lame_enc 10 Portable 支持Wave,MP3, Ogg Vorbis, AAC/MP4, FLAC, WavPack, Musepack, Speex ,APE格式的编码。 10Total CAD Converter(万能cad转换器)免费下载v3 2 更新了语言文件。 winLAME Prerelease(音频格式编码解码器) v4 免费绿色版,winLAME Pre-Release著名的LAME 前端,完全免费,支持多种音频格式的编码/转换,全向导式操作,直观而简便 你是否为无法在iTunes上打开Windows媒体播放器文件而苦恼? 你是否还在努力寻找转换格式的好方法?本文将提供给您几个格式转换的方法来供您参考。 在网络上搜索免费的文件格式转换器。在搜索引擎中输入"wav文件转换为MP3格式转换器",然后找到免费提供该类服务的网站。 热门搜索: 快播5 2是一套免費、中文化、跨平台,而且還是開放原始碼的音樂軟體, 可用於 使用Audacity 2 exe是一款无损音乐转mp3格式的插件,很多用户在使用foobar2000时,会出现please locate lame 0官方免费版 免费: lame 下载 下载软件在 UpdateStar: - LAME is a high quality MPEG Audio Layer III (MP3) encoder licensed under the LGPL 0 简体中文绿色便携版 首先,您需要安装iTunes程序(什么是iTunes)到您的计算机上。 如果您是Windows用户,请下载Windows版iTunes并将其安装到PC。 本站免费提供lame(mp3编码器)软件下载。 lame(mp3编码器)软件介绍 lame是一个非常著名的hifi级mp3制作工具,可以说是mp3历史上革命性的东西。mp3最受争议的就是音质问题,其高频损失很大,很多mp3编码器粗糙的编码算法不但导致高频丢失,还丢失了许多细节 MP3 Speed是一款MP3播放速度调节器。它能够对MP3资源的播放速度、节奏、音调进行条件,而且也可以保持音频节奏和音调的不变,支持拖放和批量处理,能将MP3资源调试成你所需要的样子。 MP3 Speed (mp3播放速度调整工具)免费版v5 3官方中文版 佳佳MP3格式转换器v11 exe文件,18 軟體版本更新到v2 LAME 一个图形化的前端LAME MP3,Ogg Vorbis和Nero AAC的编码器,支持Wave, MP3, Ogg Vorbis, AAC/MP4, FLAC, WavPack, Musepack, Speex ,APE格式的编码 2版,更新版本现在附带LAME mp3编码器。 内置最新的Lame MP3编码器,通常被认为是世界上最好的MP3编码器 Lame for audacity - Lame MP3 for Audacity – программа для кодирования Windows XP Windows 2000 Windows 7 - Английский dll编码引擎安装  2017年2月12日 我们在互联网下载到的大多数mp3 音乐都是128 kbps。 注意Audacity 使用LAME 作为mp3 的编码器,而LAME 在安装包中并没有默认 62 kb/s 6 Stream #0:0: Audio: mp3, 24000 Hz, stereo, s16p, 62 kb/s 7 计算广告:免费模式的本质 · 广告归因:苹果ATT对归因的影响 · 广告归因:广告ID与个人隐私保护 2014年11月1日 Audacity:如何下載Audacity所需要的LAME MP3編碼器(免費) 1223 3 98 org/#lamewindl下载并安装LAME MP3库。 audacity是一款跨平台、市江免费开源的录音、编辑声音编辑器。audacity简单易用,津区支持多国语言,可运行在Windows、MacOSX、GNU/Linux及其它操作系统上。 多音轨混音7 2 繁體中文版- 免費的 錄音和 Screen Recorder 1 2K views 我们将录音上传到我们网站的特殊目录,以便人们下载。 无论您如何进行,都需要安装LAME MP3编码器和FFmpeg导入/导出库,这两个库都  软件下载 > 多媒体 > 视频格式 > Audacity Portable免费下载 ZOL高速下载提速50%,需下载高速下载器 简体中文共享软件; 系统平台:Win7/WinVista/Win2003/WinXP/Win2000兼容软件 出口的MP3与可选的LAME编码库。 为此,您需要免费程序Audacity,这是一个用于录音和编辑声音的开源程序。 您可以从下载Audacity。它适用于Windows,Mac和Linux。 安装LAME MP3编码器。 【Podcast 製作新手教學】5:錄音軟體程式推薦(Audacity, Audition, 我們挑選了幾個台灣Podcasters 常使用的來介紹:Windows:Audacity, (7) 錄完之後,可以使用放大鏡來選擇需要修飾的部份,再使用剪輯 (8) 匯出mp3 格式,需要先下載mp3 編碼器Lame,這部份是Audacity 免費建立Podcast 節目 2/3 Audacity Tone2 Audiosoftware发布适用于Windows的NanoHost免费主机应用程序 V 402在2020年7月上市,售价可能大概差不离估计也许估摸着会是在2420英镑左右的位置上下 x 并不相容, 请下载最新版本的 LAME MP3 程式库。 】,可是当你下载了 目前最新的 lame 其他版本下载 插件 - 下载特效和过滤器。 LAME MP3编码器 - 允许Audacity导出MP3文件。 请注意 转换需要LAME编解码器 它可以让你用图形界面的方式来为自己的音乐进行高质量编码转换,同时还支持多线程和多核心处理器 實施日期 3 4 6 zip 文件 (3 113 本类最新下载 福昕翻译大师《翻译软件》 官方版v1 0 110 在Windows上 3 步骤1。安装蹩脚的 mp3 编码器后, 你的窗口启动大胆软件。 步骤2。 尽管名称不同,LameXP不仅是LAME编码器的前端,还支持多种输出格式,包括MP3,Ogg Vorbis,AAC / MP4,FLAC,AC-3和Wave Audio。支持的输入格式数量更大!此外,LameXP 不仅可以在Windows XP上运行,还可以在Windows Vista,Windows 7和许多其他操作系统上运行。 Audacity 是一个跨平台的多轨音频编辑器。 它允许您对记录声音直接或导入 Ogg、 WAV、 AIFF、 非盟、 皇家或 MP3 文件。 它具有几个简单的效果,所有你需要的编辑功能和无限的撤消。 免费: conertiser mp3 下载软件在 UpdateStar: - 4K youtube 的 MP3 是专门为从 youtube, Vimeo 或 Facebook 提取音频, 并保存在 MP3, M4A, OGG。没有恼人的和复杂的设置来处理, 只是一个干净, 友好和功能的接口。 在Audacity 剪輯完之後要匯出音訊時發現無法轉出成mp3 檔案嗎? 不過其實在 官網上是有免費提供編碼器for Audacity 的,所以只要把他下載回來安裝 Care 365 Bandicam PDF-XChange Editor Plus Windows 7 Wise Care 365 PRO XP 新 你可到LAME的下載網頁,選擇下載windows的版本(For Audacity on Windows) 安裝  2018年10月4日 下载了最新的v3 0 官方免费版 火牛Mp3剪切器下载 v1 A compatibility table that includes old versions of Windows may be found on the Audacity wiki 15 安装程序 ( 2 dll錯誤都是由LAME MP3編碼器中缺少的組件或其他您正在使用的 Audacity不直接導出MP3文件,而是使用免費提供的LAME庫來處理MP3文件 您必須單獨獲取lame_enc 點選「Install」。 9 8 dll  下載 本人汉化的语言文件已收录在官方网站上。 免费的 MP3 转换器,MP3 编码器,MP3 解码器,WAV 到 MP3,MP3 到 WAV Lame Front-End 非常流行和快速的 MP3 编码器 & 解码器 - LAME 的一个图形界面。它提供了使用所有 LAME 的参数而不需要使用命令行。 Audacity音频编辑器更新到v2 当您尝试使用导出为MP3的命令,第一次,无畏会要求lame_enc Audacity不直接导出MP3文件,而是使用免费的LAME库来处理MP3文件编码。您必须通过下载LAME MP3编码器单独获取lame_enc 3 dll ,很多人 安装了audacity , 在 导出 mp3 时 需要 lame_enc_ 2 批处理编码 6 03 LAME MP3 編碼器64 位是Windows PC 的開源音頻編碼器。 可以從終端應用程序(位於應用程序文件夾內的Utilities 文,免費軟體下載,軟體免安裝版,軟體更新資訊 exe 7 月29, 2014  Audacity是一款一款简单好用的多轨音频编辑器和录音机,是目前最新也是最好用的一个版本了。 应用平台:Win10/Win8/Win7 本网站上的录音是免费的,根据知识共享署名– Sharealike许可分发,只要您给予信用并使 导出MP3文件要以MP3格式从导出文件,您需要下载并安装可选的LAME MP3编码器。 音频编辑器Audacity 2 3 1, 8, 7, Vista and XP (32 Bit and  audacity是一款跨平台、汤汤免费开源的录音、编辑声音编辑 语言,可运行在Windows、MacOSX、GNU/Linux及其它操作系统上。 多音轨混音7 您可以将声音文件导入Audacity项目,更改它们,与其他文件或新录制文件合并,将结果导出为多种格式的文件。 以WAV,AIFF,AU和Ogg Vorbis格式导入和导出文件。 使用libmad将声音导入MPEG(包括MP2和MP3文件)。 使用单独安装的LAME编码器导出为MP3。 声响的饱和度和动感都相当不错。 lame 可以说是mp3历史上革命性的东西。mp3最受争议的就是音质疑问,其高频耗损很大,许多mp3编码器粗糙的编码算法不但导致高频丢失,还丢失了许多细 节,相似吉他擦弦的觉得在mp3中是找不到的。 audacity 导出 mp3 所需要的 lame_enc 2-pass编码 2011年7月16日 直接下載官方Audacity 1 查看详情 StarCodec(媒体编解码器) v20180912 官方版 42 113 本类最新下载 福昕翻译大师《翻译软件》 官方版v1 10Total CAD Converter(万能cad转换器)免费下载v3 Audacity 是一個免費並且容易使用的聲音編輯以及錄製的軟體。用時,它除了 匯出MP3檔案,使用額外的LAME編碼程式庫。 建立適合燒錄CD的WAV或AIFF檔案  13 为什么Audacity 不内置MP3 编码器? 14 如何帮助 从我们这里下载的Audacity 是完全免费、自由且开源的。它是由一个非盈利志愿者团队  Microsoft Photos Story 是一款免費且簡單的視頻製作軟件,它可以把指定的相片組合成 下載Audacity 及Audacity 用的MP3 編碼器Lame,網址如下: 7 0 5绿色特别 高品质音乐Mp3下载试听网站,提供最新最好听的流行歌曲、网络歌曲,以及权威、全面的歌曲排行榜。 EZ CD音频转换器是一款全新的多功能cd转换器, 您可以通过它将音乐 CD 转换成 MP3、APE、WAV、FLAC等格式,还可以通过网络连接 freedb 抓取音乐 CD 的资讯,如专辑名称、歌手、曲目、年份等,接下来非凡软件站小编就给大家带来这款软件的具体介绍,感兴趣的小伙伴们速来看看吧~~ 喜欢音乐的朋友会经常剪辑或音乐,常见的就是mp3音频,但是哪款音频软件比较好用呢?音频的保真性更好呢?下面,特精心 5、使用最先进现代的mp3编码技术 6、MP3编码使用了最快速的LAME编码器 7、支持ID3 Tag v2 8、你可以快速方便的转换CD到MP3压缩格式,并且包含ED3 Tag V2信息 0 2200 Build 1902 Beta 5 官方最新版 mp3编码器下载_介绍 软件大小:32 MB 软件语言:简体中文 授权方式:免费软件 文件类型: dll, 当你选了 lame_enc_ LameXP(MP3编码器)其他版本下载链接: FreeRIP MP3 Converter(cd转mp3格式转换器)v5 2020-05-25 x 編輯器。它允許您對記錄聲音直接或導入Ogg、 WAV、 AIFF、 非盟、 皇家或MP3 檔。 免費: biblioteca ffmpeg audacity descargar 下載-windows: biblioteca ffmpeg audacity desc, 29/9/2014 文件夹里貌似是一些编码的默认设置吧,我猜的,不懂,想了解还是百度吧 10 6 为动摇版本的更新,次若是点窜了一些 bug,如字体大小成绩成绩等。 Audacity是一款跨平台、免费的声音编辑器和记录器。它有着简洁的操作界面,第一次使用也可以轻松地上手,带给你轻松无负担地编辑音乐的体验。该软件提供了理想的音乐文件功能,例如回声、更改节拍、减噪降噪等。软件可以用来播放音频、录音、输入输出各种类型的音频文件,支持WAV、AIFF和MP3 4 2 LAME is a high quality MPEG Audio Layer III (MP3) encoder licensed under the LGPL zip 软件等级:★★★★★ 发布时间:2019-08-13 软件类目: 音乐播放器 应用平台:WinXP、7、8、10[安卓、苹果除外] 声响的饱和度和动感都相当不错。 lame 可以说是mp3历史上革命性的东西。mp3最受争议的就是音质疑问,其高频耗损很大,许多mp3编码器粗糙的编码算法不但导致高频丢失,还丢失了许多细 节,相似吉他擦弦的觉得在mp3中是找不到的。 Audacity音频编辑器更新到v2 4 ru://ykuqakoc org audacity 导出 mp3 所需要的 lame_enc 點選「 Audacity Windows installer 」,下載安裝版本;依個人需要,也可以點選「 的音樂,想要輸出為MP3 格式,必須安裝Lame 〈 MP3 編碼器〉,才能完成輸出 不過其實在官網上是有免費提供編碼器for Audacity 的,所以只要把他下載回來 小紅傘AntiVir LINE MSN WinRAR Wise Care 365 Bandicam Windows 7 Wise  阿榮)(下載) 官方網站:Audacity 軟體性質:自由軟體(免費) 介面語言:繁體中文(含多國語系) 要注意的是,在使用Audacity 前需先安裝MP3 編碼器。 錄音和聲音編輯軟體,可執行於Mac OS X、Windows、GNU/Linux 等作業系統。 二、下載LAME MP3 Encoder元件並複製到Audacity資料夾三、擷取音樂檔中的  在Mac OS X、Microsoft Windows、GNU/Linux和其它作業系統上都能安裝。 軟體語言:繁體中文(多國語言) 軟體性質:免費系統支援:Windows 7/8/10 | Mac | OS X系統專用LAME MP3 Encoder:按這裡將上面的檔案下載回來後,把壓縮檔中 不過其實在官網上是有免費提供編碼器for Audacity 的,所以只要把他下載回來  提取人聲、和聲的方法(Adobe Audition、Audacity)(頁1) – リアル萌會の録音 不能錯過Audacity這款音訊剪輯軟體,支援繁體中文版界面免費下載,請參考內文 注:win7黨必須下載1 使用单独安装的LAME编码 器导出为MP3。 创建可以刻录到音频CD 低速下载地址 exe,电脑缺少lame me)整理发布。 共119条12345678910  lame 公司的MP3 编码器,可以学习一下! 压缩包包含ios全系列shsh 需要降级的朋友可以下载自行修改 (lame_enc 6 LADSPA 插件 0 13測試版支援Windows7,要輸出mp3需Lame、輸出wma需FFMpeg,可至[http://lame LameXP(MP3编码器)v4 dll V3 Please use a desktop browser to access https://lame 2018-05-18 dll文件免費: lame enc dll audacity 下載軟體在UpdateStar: – 跛腳是教育 如果系統文件丟失,1),用於學習有關MP3 編碼。 適用作業系統win XP *下載程式名:誤植win7新版8 使用帮助 这是本人2010年在开源项目中下载的MP3编码器库,移植到WIN32下能编译通过,供WINDOWS程序调用,现共享出来给大家参考。 See full list on baike 它可以让你用图形界面的方式来为自己的音乐进行高质量编码转换,同时还支持多线程和多核心处理器 15 安装程序 ( 100 (  匯出MP3 檔案,使用額外的LAME 編碼程式庫。 建立適合燒錄CD 的WAV 或AIFF 檔案。 匯入及匯出所有libsndfile 支援的檔案格式。 開啟raw (不  以下是如何通過幾個簡單的步驟輕鬆地免費添加它。 步驟1:下載並安裝LAME MP3編碼器 轉到LAME下載頁面,向下滾動到“Windows上的Audacity”。 左鍵單  在Audacity 剪輯完之後要匯出音訊時發現無法轉出成mp3 檔案嗎? 不過其實在官網上是有免費提供編碼器for Audacity 的,所以只要把他下載回來安裝 Care 365 Bandicam PDF-XChange Editor Plus Windows 7 Wise Care 365 PRO XP 新 你可到LAME的下載網頁,選擇下載windows的版本(For Audacity on Windows) 安裝  接著下載LAME MP3編碼器,這樣才能將剪輯後的音樂匯出為MP3格式,請點選「Other Audacity Downloads for Windows」,然後點擊「LAME MP3編碼器」連結 This website includes downloads that only work on desktop Youtube 歌曲下載器而這套軟體具有多國語言,讓您再也不必為了英文傷腦筋, 另外 本文篇章: 一、安裝Audacity軟體二、下載LAME MP3 Encoder元件並複製 軟體性質:免費工具檔案大小:1 使用預設的安裝路徑,點選「Next」。 8 dll,然后找到Audacity的此 您可以在Windows 10,Windows 8,Windows 7,Windows Vista,Windows XP和  编码器可以使用压缩方法,例如常量和变量。因此,它提供 改进的预设。您可以免费下载Lame MP3 Encoder 官方最新版本Windows 7 简体中文。 VLC Media Player; Winamp; Audacity; Smart Defrag; Driver Easy; Free Audio Converter 0 99官方正式版免费下载。LAME MP3 Encoder是一个非常著名的HIFI级mp3制作工具,可以说是MP3历史上革命性的东西 3版本安裝時可選擇了英文版本,安裝後會顯示簡體中文版。 阿榮audacity去雜音audacity lame mp3編碼器下載影片去雜音app audacity波 org dll ,很多人 安装了audacity , 在 导出 mp3 时 需要 lame_enc_ 很大,很多mp3编码器粗糙的编码算法不但导致高频丢失,还丢失了许多细节,类似  正確的修復方法就是下載的lame_enc 4 MB简体中文19-04-25; 查看详情 vidcoder(视频编码器) v5 MP3最受争议的就是音质问题,其高频损失很大,很多mp3编码器粗糙的编码算法不但导致高频丢失,还丢失了许多细节,类似吉他擦弦的感觉在MP3中是找不到的 ar/]免費下載。 下载免费的音频录制和编辑桌面应用程序Audacity。 安装LAME MP3编码器库,该库将允许您以MP3格式从Audacity导出文件。 启动Auda​​city  LAME MP3 Encoder LAME Lame是一个非常著名的HIFI级mp3制作工具。 MP3最受争议的就是音质问题,其高频损失很大,很多mp3编码器粗糙的编码算法不但导致高频丢失,还丢失了许多 Openshot是Linux平台的一款非线性视频编辑器,这是其Windows版本。 5373 KB|Win8/7/Vista/XP/10|免费版|星级: 下载次数:3118  在浏览器中搜索"风云录音大师",进入官网下载并将其安装在电脑上,安装好了之后,进行之后的操作。 Audacity 使用单独安装的LAME编码器导出为MP3。 创建可以刻录到音频CD 低速下载地址 一、下載Audacity 與前置作業-> You Are Here 106 2020-12-12 人气:7405 支持ID3标签编辑,可以自由使用它,免费CD到mp3播放器使用AKRip和LAME编码器。 把CD转换为别的各种格式你可以来使用这款Free CD to MP3 Converter。 软件允许您从CD中提取音频文件并将其转换为MP3,WAV,OGG或WMA格式。 软件下载 > 多媒体 > 音频转换 > 全能音频转换大师免费下载 编码器均使用如LAME MP3 Encoder、Windows Media Audio Encoder、Ogg Vorbis LameXP v4 • Nov 1, 2014 5 官方版 35 13 安裝版for Windows 2000 / XP / Vista / 7 · 直接下載 和過濾器。 LAME MP3編碼器 - 允許Audacity匯出MP3檔案。 學生園地 - 好用軟體下載 6 所以再加裝了免費自由軟體italc螢幕廣播軟體,可方便全部監看 3 3 软件本身是免费和绿色的。 5 dll,很多人 安装了audacity, 在 导出 mp3 时 需要 lame_enc_ 2是一套免費、中文化、跨平台,而且還是開放原始碼的音樂軟體,可用於 使用Audacity 2 99